<?xml version="1.0" standalone="no"?>
<!DOCTYPE svg PUBLIC "-//W3C//DTD SVG 1.1//EN" "http://www.w3.org/Graphics/SVG/1.1/DTD/svg11.dtd">
<svg xmlns="http://www.w3.org/2000/svg"><defs><font id="flaticon" horiz-adv-x="512"><font-face units-per-em="512" ascent="448" descent="-64" x-height="240" cap-height="480"/><missing-glyph horiz-adv-x="512"/><glyph unicode="&#xE000;" glyph-name="active5" horiz-adv-x="512" d="M345.588 14.29c-27.337 0 -48.967 18.125 -64.757 33.915L112.204 216.831c-14.098 14.098 -30.645 33.37 033A9D1A8E"/><glyph unicode="&#xE001;" glyph-name="add13" horiz-adv-x="512" d="M256 344.5c-84.089 0 -152.502 -68.411 -152.502 -152.5S171.911 39.5 256 39.5c84.09 0 152.5 68.411 152099559EA6E"/><glyph unicode="&#xE002;" glyph-name="alarm68" horiz-adv-x="512" d="M439.416 299.125c-18.055 29.852 -56.173 40.254 -86.716 24.439C325.661 343.65 292.195 355.55 256 355.0914606A33"/><glyph unicode="&#xE003;" glyph-name="bag45" horiz-adv-x="512" d="M416.005 8.531L396.411 307.29c-0.431 6.572 -5.887 11.682 -12.473 11.682h-54.69v8.041c0 34.462 -28.030D3470DA4E"/><glyph unicode="&#xE004;" glyph-name="balance6" horiz-adv-x="512" d="M178.984 209.848H68.135c-6.903 0 -12.5 -5.597 -12.5 -12.5c0 -37.454 30.471 -67.925 67.925 -67.925s670EF0ABBAB2"/><glyph unicode="&#xE005;" glyph-name="basket30" horiz-adv-x="512" d="M390.517 260.412h-19.373c-0.475 22.646 -3.228 42.759 -17.149 59.082c-12.265 14.381 -31.558 23.295 -50F04499AE0"/><glyph unicode="&#xE006;" glyph-name="battery166" horiz-adv-x="512" d="M436.442 232.998v35.137c0 17.921 -14.579 32.5 -32.5 32.5H88.058c-17.921 0 -32.5 -14.579 -32.5 -32.5v0E39963AD2"/><glyph unicode="&#xE007;" glyph-name="battery167" horiz-adv-x="512" d="M446.442 232.998v35.137c0 17.921 -14.58 32.5 -32.5 32.5H98.058c-17.92 0 -32.5 -14.579 -32.5 -32.5v-10C6A122A96"/><glyph unicode="&#xE008;" glyph-name="battery168" horiz-adv-x="512" d="M436.442 232.998v35.137c0 17.921 -14.579 32.5 -32.5 32.5H88.058c-17.921 0 -32.5 -14.579 -32.5 -32.5v002AD97A7C"/><glyph unicode="&#xE009;" glyph-name="battery169" horiz-adv-x="512" d="M373.025 191.778l-118 51.813c-4.016 1.763 -8.663 1.291 -12.246 -1.241c-3.581 -2.535 -5.571 -6.761 -503CA9D3A30"/><glyph unicode="&#xE00A;" glyph-name="bin9" horiz-adv-x="512" d="M363.928 349.712h-75.561c-1.73 4.829 -6.334 8.29 -11.758 8.29h-41.219c-5.424 0 -10.027 -3.461 -11.75025F0B6A8D"/><glyph unicode="&#xE00B;" glyph-name="book244" horiz-adv-x="512" d="M466 309.04h-24.191v1.337c0 5.249 -3.279 9.939 -8.21 11.741c-29.977 10.955 -60.577 16.51 -90.946 16.04895CBA7D"/><glyph unicode="&#xE00C;" glyph-name="briefcase65" horiz-adv-x="512" d="M410.741 299.579H333.43v13.834c0 16.314 -13.272 29.587 -29.586 29.587h-95.688c-16.313 0 -29.586 -13.272 -29.586 -29.587 v-13.834h-77.312c-15.785 0 -28.627 -12.841 -28.627 -28.625v-201.328c0 -15.784 12.842 -28.626 28.627 -28.626h309.482 c15.785 0 28.627 12.842 28.627 28.626V270.954C439.368 286.737 426.526 299.579 410.741 299.579zM203.57 313.413 c0 2.529 2.058 4.587 4.586 4.587h95.688c2.528 0 4.586 -2.058 4.586 -4.587v-13.834H203.57V313.413zM101.259 274.579h309.482 c2 0 3.627 -1.626 3.627 -3.625v-65.598c-38.738 -14.37 -97.169 -22.858 -158.474 -22.858c-61.17 0 -119.521 8.459 -158.263 22.781v65.675 C97.632 272.953 99.259 274.579 101.259 274.579zM410.741 66H101.259c-2 0 -3.627 1.626 -3.627 3.626V178.793 c35.458 -11.697 82.077 -19.008 132.882 -20.84c-0.003 -0.145 -0.021 -0.285 -0.021 -0.431v-5.513c0 -10.335 8.408 -18.743 18.744 -18.743 h13.527c10.336 0 18.744 8.408 18.744 18.743v5.513c0 0.147 -0.019 0.291 -0.022 0.437c50.837 1.848 97.45 9.18 132.883 20.901 v-109.235C414.368 67.626 412.741 66 410.741 66z"/><glyph unicode="&#xE00D;" glyph-name="bulb19" horiz-adv-x="512" d="M378.67 261.832C378.67 329.471 323.641 384.5 256 384.5s-122.67 -55.029 -122.67 -122.668c0 -46.923 180131305A5F"/><glyph unicode="&#xE00E;" glyph-name="button14" horiz-adv-x="512" d="M256.001 39.5c-84.091 0 -152.502 68.411 -152.502 152.5s68.411 152.5 152.502 152.5c84.089 0 152.5 -68061919BA02"/><glyph unicode="&#xE00F;" glyph-name="cake30" horiz-adv-x="512" d="M252.479 321.706h7.041c4.324 0 8.341 2.235 10.621 5.909c3.031 4.884 3.358 10.622 3.358 12.861 c0 7.809323D1A06"/><glyph unicode="&#xE010;" glyph-name="calendar1" horiz-adv-x="512" d="M428.019 382.309H403.5v6.817c0 6.903 -5.596 12.5 -12.5 12.5s-12.5 -5.597 -12.5 -12.5v-6.817h-65v6.810626D12AD0"/><glyph unicode="&#xE011;" glyph-name="call56" horiz-adv-x="512" d="M443.5 308.094c0 32.001 -8.288 54.097 -25.338 67.551c-17.097 13.49 -39.671 15.221 -57.428 15.221H1510034E80A7C"/><glyph unicode="&#xE012;" glyph-name="camera104" horiz-adv-x="512" d="M438 315H183.244v21.846c0 6.904 -5.596 12.5 -12.5 12.5h-46.666c-6.904 0 -12.5 -5.596 -12.5 -12.5V3150180B17AA3"/><glyph unicode="&#xE013;" glyph-name="camera105" horiz-adv-x="512" d="M422.357 211.249c-2.852 2.374 -6.611 3.359 -10.263 2.687l-43.302 -7.977v27.225c0 6.904 -5.597 12.5 -0CA6789AF8"/><glyph unicode="&#xE014;" glyph-name="cancel22" horiz-adv-x="512" d="M256.001 344.5c-84.09 0 -152.502 -68.411 -152.502 -152.5s68.412 -152.5 152.502 -152.5c84.089 0 152.5062108EA2C"/><glyph unicode="&#xE015;" glyph-name="cart" horiz-adv-x="512" d="M426.001 314.234H161.747l-15.221 35.779c-1.558 3.662 -4.767 6.363 -8.64 7.275L88.864 368.822 c-6.72 088EBEEAF2"/><glyph unicode="&#xE016;" glyph-name="caution7" horiz-adv-x="512" d="M435.01 45.312L266.952 350.74c-2.197 3.993 -6.394 6.474 -10.952 6.474s-8.754 -2.481 -10.952 -6.474L7050D21FABE"/><glyph unicode="&#xE017;" glyph-name="chain8" horiz-adv-x="512" d="M422.15 347.593l-10.557 10.559c-12.432 12.432 -28.961 19.278 -46.541 19.278c-17.582 0 -34.109 -6.8470ED42B3A56"/><glyph unicode="&#xE018;" glyph-name="chart45" horiz-adv-x="512" d="M226.595 -13.126c-96.893 0 -175.721 78.828 -175.721 175.721s78.828 175.721 175.721 175.721c6.903 0 10BF84F7AAE"/><glyph unicode="&#xE019;" glyph-name="chart46" horiz-adv-x="512" d="M164.873 50.094h-57.746c-6.903 0 -12.5 5.597 -12.5 12.5V201.406c0 6.903 5.597 12.5 12.5 12.5h57.746 0B1EA18AD3"/><glyph unicode="&#xE01A;" glyph-name="chart47" horiz-adv-x="512" d="M431 50.966H109.105l52.362 104.942l54.308 -35.322c3.451 -2.245 7.788 -2.648 11.593 -1.072 c3.806 1.50C11B96A7E"/><glyph unicode="&#xE01B;" glyph-name="check64" horiz-adv-x="512" d="M256.001 344.5c-84.09 0 -152.502 -68.411 -152.502 -152.5s68.412 -152.5 152.502 -152.5c84.089 0 152.507033FFA93"/><glyph unicode="&#xE01C;" glyph-name="cloud334" horiz-adv-x="512" d="M366.055 244.332c-16.921 26.564 -46.168 42.779 -78.009 42.779c-4.252 0 -8.498 -0.291 -12.697 -0.869 08EC20CAF2"/><glyph unicode="&#xE01D;" glyph-name="cloudy" horiz-adv-x="512" d="M360.426 59.5H151.574c-51.004 0 -92.499 41.495 -92.499 92.499c0 34.445 18.917 65.593 48.864 81.584 c06AE157A4D"/><glyph unicode="&#xE01E;" glyph-name="cocktail" horiz-adv-x="512" d="M389.839 296.495c3.574 3.575 4.645 8.952 2.709 13.623c-1.934 4.671 -6.492 7.716 -11.548 7.716h-50.2801746BBAD6"/><glyph unicode="&#xE01F;" glyph-name="coverage1" horiz-adv-x="512" d="M136 98.85c-6.904 0 -12.5 -5.597 -12.5 -12.5v-28.699c0 -6.903 5.596 -12.5 12.5 -12.5c6.903 0 12.5 5.01722C6AD7"/><glyph unicode="&#xE020;" glyph-name="cropping4" horiz-adv-x="512" d="M431 95.406h-53.406v200.51l42.91 42.91c4.881 4.882 4.881 12.796 0 17.678c-4.881 4.881 -12.797 4.881 0172D0DA1A"/><glyph unicode="&#xE021;" glyph-name="cup55" horiz-adv-x="512" d="M357.968 171.556c-6.904 0 -12.5 -5.596 -12.5 -12.5v-41c0 -6.904 5.596 -12.5 12.5 -12.5s12.5 5.596 12033DC93AE8"/><glyph unicode="&#xE022;" glyph-name="dish7" horiz-adv-x="512" d="M284.499 91.043c40.734 0 79.03 15.863 107.834 44.666c2.344 2.344 3.661 5.523 3.661 8.839s-1.317 6.490782955AB3"/><glyph unicode="&#xE023;" glyph-name="down126" horiz-adv-x="512" d="M344.839 158.923c-4.881 4.881 -12.797 4.881 -17.678 0L268.5 100.262V313.916c0 6.903 -5.597 12.5 -12.0992362A37"/><glyph unicode="&#xE024;" glyph-name="download181" horiz-adv-x="512" d="M247.161 116.807c2.441 -2.44 5.64 -3.661 8.839 -3.661s6.398 1.221 8.839 3.661l80 80c4.881 4.882 4.880CB30E7A50"/><glyph unicode="&#xE025;" glyph-name="download3" horiz-adv-x="512" d="M366.055 244.332c-16.921 26.564 -46.168 42.779 -78.009 42.779c-4.252 0 -8.498 -0.291 -12.697 -0.869 0F7BAAEABD"/><glyph unicode="&#xE026;" glyph-name="envelope54" horiz-adv-x="512" d="M427.813 325.994H84.188c-6.903 0 -12.5 -5.597 -12.5 -12.5v-242.988c0 -6.903 5.597 -12.5 12.5 -12.5h309C3379ACA"/><glyph unicode="&#xE027;" glyph-name="favourite24" horiz-adv-x="512" d="M356.723 24.5c-1.989 0 -3.986 0.475 -5.815 1.436L256 75.832l-94.908 -49.896c-4.212 -2.213 -9.315 -1.0C3F2CFAFB"/><glyph unicode="&#xE028;" glyph-name="flag86" horiz-adv-x="512" d="M379.816 197.964l-42.104 71.994l42.444 72.574c2.261 3.866 2.281 8.646 0.053 12.53s-6.364 6.28 -10.840D04F8DA7B"/><glyph unicode="&#xE029;" glyph-name="flask16" horiz-adv-x="512" d="M399.564 28.295l-85.316 208.281V360.443c0 6.903 -5.596 12.5 -12.5 12.5h-91.496c-6.904 0 -12.5 -5.59704262EDA8B"/><glyph unicode="&#xE02A;" glyph-name="folder256" horiz-adv-x="512" d="M460.773 280.979c-2.37 2.629 -5.744 4.13 -9.284 4.13h-2.345c-2.904 26.221 -25.189 46.685 -52.171 46.09A6B75A24"/><glyph unicode="&#xE02B;" glyph-name="garbage13" horiz-adv-x="512" d="M256 269.99c-6.904 0 -12.5 -5.597 -12.5 -12.5v-169.354c0 -6.903 5.596 -12.5 12.5 -12.5c6.903 0 12.5 0B65EEDA97"/><glyph unicode="&#xE02C;" glyph-name="gift84" horiz-adv-x="512" d="M387.244 285.736h-13.537c4.111 5.801 7.141 12.379 8.875 19.496c3.604 14.794 1.23 30.107 -6.684 43.11063883AAEC"/><glyph unicode="&#xE02D;" glyph-name="globe32" horiz-adv-x="512" d="M256 389.5C147.098 389.5 58.5 300.902 58.5 192S147.098 -5.5 256 -5.5S453.5 83.098 453.5 192S364.902 0B99B12AB9"/><glyph unicode="&#xE02E;" glyph-name="graduation1" horiz-adv-x="512" d="M438.409 243.893l-176.65 91.701c-3.611 1.874 -7.907 1.874 -11.519 0l-176.65 -91.701c-4.141 -2.15 -6.0117FA9AF4"/><glyph unicode="&#xE02F;" glyph-name="hand223" horiz-adv-x="512" d="M281.547 312c6.622 0 13.267 -2.332 18.607 -7.076l68.855 -61.155c12.036 -12.296 23.427 -33.273 23.427 -51.304v-60.223 c0 -33.269 -24.142 -60.242 -53.93 -60.242l-68.719 0.026c-15.48 0 -28.035 12.557 -28.035 28.033c0 5.087 1.378 9.846 3.748 13.963 c-12.984 2.444 -22.81 13.832 -22.81 27.534c0 5.558 1.637 10.72 4.429 15.079c-10.464 4.072 -17.882 14.218 -17.882 26.109 c0 5.22 1.45 10.082 3.934 14.271h-65.576c-15.486 0 -28.034 12.557 -28.034 28.033c0 15.487 12.548 28.033 28.034 28.033H274.09 l-11.173 9.928c-11.576 10.273 -12.621 27.994 -2.344 39.57C266.114 308.817 273.814 312 281.547 312 M281.547 337 c-15.148 0 -29.605 -6.494 -39.664 -17.816c-9.408 -10.598 -14.125 -24.217 -13.29 -38.354c0.055 -0.921 0.132 -1.838 0.233 -2.748h-81.229 c-29.243 0 -53.034 -23.791 -53.034 -53.033s23.791 -53.033 53.034 -53.033h37.729c1.437 -6.988 4.282 -13.621 8.429 -19.564 c1.305 -1.869 2.718 -3.643 4.232 -5.314c-0.196 -1.847 -0.294 -3.709 -0.294 -5.58c0 -16.174 7.32 -30.912 19.067 -40.725 c-0.004 -0.258 -0.006 -0.515 -0.006 -0.772c0 -29.243 23.792 -53.033 53.035 -53.033L338.498 47c21.622 0 41.781 9.224 56.772 25.971 c14.294 15.97 22.167 37.02 22.167 59.271v60.223c0 12.144 -3.346 25.51 -9.677 38.652c-5.385 11.178 -12.801 21.881 -20.884 30.139 c-0.407 0.416 -0.829 0.818 -1.264 1.205l-68.855 61.154C307.042 332.246 294.537 337 281.547 337L281.547 337z"/><glyph unicode="&#xE030;" glyph-name="hand224" horiz-adv-x="512" d="M428.5 221.237c0 95.117 -77.383 172.5 -172.5 172.5s-172.5 -77.383 -172.5 -172.5c0 -56.08 27.084 -1080F5EBA7A83"/><glyph unicode="&#xE031;" glyph-name="hand225" horiz-adv-x="512" d="M230.453 312c7.732 -0.001 15.432 -3.183 20.973 -9.42c10.277 -11.576 9.232 -29.297 -2.344 -39.57l-11.172 -9.928h126.492 c15.486 0 28.035 -12.546 28.035 -28.033c0 -15.477 -12.549 -28.033 -28.035 -28.033h-65.576c2.484 -4.188 3.934 -9.051 3.934 -14.271 c0 -11.892 -7.416 -22.037 -17.881 -26.109c2.791 -4.359 4.428 -9.521 4.428 -15.079c0 -13.702 -9.824 -25.089 -22.809 -27.534 c2.369 -4.117 3.748 -8.876 3.748 -13.963c0 -15.477 -12.555 -28.033 -28.035 -28.033L173.492 72c-29.787 0 -53.93 26.974 -53.93 60.242 v60.223c0 18.03 11.393 39.008 23.428 51.304l68.855 61.155C217.186 309.668 223.83 312 230.453 312 M230.455 337L230.455 337 c-12.99 0.001 -25.496 -4.753 -35.213 -13.387l-68.854 -61.152c-0.436 -0.387 -0.857 -0.789 -1.265 -1.205 c-8.083 -8.258 -15.499 -18.961 -20.884 -30.139c-6.332 -13.143 -9.678 -26.509 -9.678 -38.652v-60.223c0 -22.252 7.873 -43.302 22.168 -59.271 C131.723 56.224 151.881 47 173.492 47l68.729 0.026c29.234 0 53.025 23.79 53.025 53.033c0 0.258 -0.002 0.516 -0.006 0.773 c11.746 9.812 19.066 24.55 19.066 40.724c0 1.871 -0.099 3.732 -0.295 5.58c1.516 1.672 2.93 3.445 4.234 5.316 c4.146 5.941 6.99 12.574 8.428 19.563h37.729c29.244 0 53.035 23.791 53.035 53.033s-23.791 53.033 -53.035 53.033h-81.229 c0.101 0.91 0.178 1.827 0.232 2.748c0.837 14.138 -3.882 27.757 -13.284 38.348C260.059 330.505 245.604 336.998 230.455 337 L230.455 337L230.455 337z"/><glyph unicode="&#xE032;" glyph-name="hand226" horiz-adv-x="512" d="M280.597 342c9.365 -0.001 18.973 -6.367 21.828 -21.159c10.263 -53.176 -14.648 -92.984 -14.648 -92.984h53.946 c15.895 0 29.773 -12.879 29.773 -28.771c0 -15.885 -10.836 -28.772 -21.199 -28.772c2.55 -4.299 4.038 -9.29 4.038 -14.646 c0 -12.208 -7.611 -22.619 -18.353 -26.799c2.864 -4.476 4.546 -9.772 4.546 -15.477c0 -14.063 -10.086 -25.749 -23.412 -28.261 c2.434 -4.224 3.847 -9.109 3.847 -14.33c0 -15.885 -12.884 -28.771 -28.772 -28.771L261.663 42c-90.319 0 -73.312 31.335 -121.159 31.335 V192.031c30.568 0 57.156 1.621 83.819 43.766c18.678 29.521 30.692 48.09 35.718 88.036 C261.469 335.183 270.903 342 280.597 342 M280.599 367L280.599 367c-10.726 0 -21.161 -3.771 -29.381 -10.619 c-8.845 -7.369 -14.52 -17.82 -15.981 -29.428c-4.265 -33.898 -13.875 -49.086 -31.322 -76.656l-0.717 -1.133 c-20.329 -32.133 -36.275 -32.133 -62.693 -32.133c-13.807 0 -25 -11.193 -25 -25v-118.696c0 -13.808 11.193 -25 25 -25 c12.812 0 16.722 -2.515 25.291 -8.024c7.315 -4.704 17.334 -11.146 33.014 -15.887c16.52 -4.996 37.08 -7.424 62.854 -7.424 l30.551 0.028c29.627 0 53.749 24.122 53.749 53.771c0 0.366 -0.004 0.732 -0.011 1.099c12.055 9.948 19.577 24.981 19.577 41.492 c0 1.996 -0.111 3.982 -0.331 5.951c1.611 1.759 3.111 3.631 4.492 5.608c6.311 9.044 9.646 19.665 9.646 30.716 c0 0.643 -0.012 1.283 -0.035 1.924c10.421 9.954 17.196 25 17.196 41.495c0 14.528 -5.919 28.177 -16.668 38.433 c-10.367 9.892 -23.899 15.339 -38.105 15.339h-17.255c6.224 23.892 7.1 48.911 2.504 72.722 c-2.387 12.365 -8.11 22.808 -16.551 30.198C302.156 363.014 291.564 366.999 280.599 367L280.599 367z"/><glyph unicode="&#xE033;" glyph-name="home166" horiz-adv-x="512" d="M434.239 218.79l-170 149c-4.716 4.133 -11.763 4.133 -16.479 0l-170 -149c-5.191 -4.55 -5.711 -12.448 059975CAB1"/><glyph unicode="&#xE034;" glyph-name="label36" horiz-adv-x="512" d="M374.118 25.456c-3.614 0 -7.136 1.57 -9.558 4.441L256 158.611L147.44 29.897c-3.384 -4.013 -8.916 -5.0E8B4C5A4B"/><glyph unicode="&#xE035;" glyph-name="lcd2" horiz-adv-x="512" d="M425.5 337.235h-339c-6.904 0 -12.5 -5.596 -12.5 -12.5v-217c0 -6.904 5.596 -12.5 12.5 -12.5H208v-23.401BF01EAF1"/><glyph unicode="&#xE036;" glyph-name="left15" horiz-adv-x="512" d="M377.916 204.5H164.262l58.659 58.661c4.882 4.882 4.882 12.796 0 17.678c-4.883 4.881 -12.797 4.881 -106C6FB6A28"/><glyph unicode="&#xE037;" glyph-name="like80" horiz-adv-x="512" d="M256 19.393c-3.478 0 -6.798 1.449 -9.164 3.998l-147.67 159.16c-0.038 0.041 -0.076 0.082 -0.113 0.1240D4F827AC4"/><glyph unicode="&#xE038;" glyph-name="location67" horiz-adv-x="512" d="M256 -0.5c-9.209 0 -18.442 6.437 -35.991 38.477c-10.677 19.493 -23.208 46.455 -35.287 75.92 c-21.7410CB26F4ADB"/><glyph unicode="&#xE039;" glyph-name="location68" horiz-adv-x="512" d="M256 374.517C155.36 374.517 73.483 292.64 73.483 192S155.36 9.483 256 9.483S438.517 91.36 438.517 190454C65A5A"/><glyph unicode="&#xE03A;" glyph-name="magnifier52" horiz-adv-x="512" d="M406.098 342.098c-27.344 27.344 -63.7 42.403 -102.37 42.402c-0.002 0 0.001 0 -0.001 0 c-38.667 0 -750B28ED0AF9"/><glyph unicode="&#xE03B;" glyph-name="medal1" horiz-adv-x="512" d="M393.344 414.008H118.656c-6.903 0 -12.5 -5.597 -12.5 -12.5v-149.332c0 -1.597 0.306 -3.179 0.901 -4.60B7CC61A86"/><glyph unicode="&#xE03C;" glyph-name="message30" horiz-adv-x="512" d="M385.83 329.098C351.033 357.237 304.926 372.734 256 372.734s-95.033 -15.497 -129.83 -43.637 c-35.571058ACEEAE4"/><glyph unicode="&#xE03D;" glyph-name="message31" horiz-adv-x="512" d="M371.742 363.012H140.258c-34.463 0 -62.5 -28.037 -62.5 -62.5v-142.78c0 -34.463 28.037 -62.5 62.5 -6206AA0FEA5F"/><glyph unicode="&#xE03E;" glyph-name="microphone" horiz-adv-x="512" d="M377.994 230.375c0 6.903 -5.597 12.5 -12.5 12.5c-6.904 0 -12.5 -5.597 -12.5 -12.5c0 -55.6 -36.895 -10D7F588AA3"/><glyph unicode="&#xE03F;" glyph-name="mobile phone20" horiz-adv-x="512" d="M364.691 381.5h-218c-6.903 0 -12.5 -5.597 -12.5 -12.5v-354c0 -6.903 5.597 -12.5 12.5 -12.5h218c6.9020F106EFA03"/><glyph unicode="&#xE040;" glyph-name="mute39" horiz-adv-x="512" d="M298.979 360.121c-4.203 2.13 -9.245 1.715 -13.043 -1.071L149.57 259.01c-2.183 1.861 -5.008 2.99 -8.101 2.99H94.861 c-6.903 0 -12.5 -5.597 -12.5 -12.5v-115c0 -6.903 5.597 -12.5 12.5 -12.5h46.607c3.094 0 5.919 1.13 8.102 2.991L285.938 24.95 c2.186 -1.604 4.783 -2.421 7.395 -2.421c1.928 0 3.864 0.445 5.648 1.35c4.202 2.129 6.851 6.439 6.851 11.15L305.83 348.971 C305.83 353.682 303.182 357.992 298.979 360.121zM107.361 237h21.607v-90h-21.607V237zM153.969 152.771v78.458l126.861 93.068 l0.002 -264.596L153.969 152.771zM389.356 192l36.621 36.621c4.881 4.882 4.881 12.796 0 17.678c-4.882 4.881 -12.796 4.881 -17.678 0l-36.621 -36.621 l-36.621 36.621c-4.882 4.881 -12.796 4.881 -17.678 0c-4.881 -4.882 -4.881 -12.796 0 -17.678L354.001 192l-36.621 -36.621 c-4.881 -4.882 -4.881 -12.796 0 -17.678c2.441 -2.44 5.64 -3.661 8.839 -3.661s6.397 1.221 8.839 3.661l36.621 36.621l36.621 -36.621 c2.44 -2.44 5.64 -3.661 8.839 -3.661s6.398 1.221 8.839 3.661c4.881 4.882 4.881 12.796 0 17.678L389.356 192z"/><glyph unicode="&#xE041;" glyph-name="note54" horiz-adv-x="512" d="M162.303 18.547c-32.118 0 -58.248 26.129 -58.248 58.247c0 32.118 26.13 58.248 58.248 58.248 c6.902 003CCA15A20"/><glyph unicode="&#xE042;" glyph-name="notebook79" horiz-adv-x="512" d="M471 113.774h-19.51V334.763c0 6.903 -5.597 12.5 -12.5 12.5H73.01c-6.903 0 -12.5 -5.597 -12.5 -12.5v-075E5F1A73"/><glyph unicode="&#xE043;" glyph-name="notes26" horiz-adv-x="512" d="M385.743 351.552H338.5V369.916c0 6.904 -5.597 12.5 -12.5 12.5s-12.5 -5.596 -12.5 -12.5v-18.364h-45V3014A06DA2B"/><glyph unicode="&#xE044;" glyph-name="notes27" horiz-adv-x="512" d="M387.993 384.409H196.914c-3.315 0 -6.495 -1.317 -8.839 -3.661l-72.907 -72.909c-2.344 -2.344 -3.661 -0FEC1AAA80"/><glyph unicode="&#xE045;" glyph-name="outbox4" horiz-adv-x="512" d="M176 276.978c3.198 0 6.398 1.221 8.839 3.661L243.5 339.3l0 -213.654c0 -6.903 5.596 -12.5 12.5 -12.5 09B4632AF5"/><glyph unicode="&#xE046;" glyph-name="padlock70" horiz-adv-x="512" d="M373.461 235.291h-36.963l10.94 46.389c8.437 35.774 -13.806 71.743 -49.579 80.18l-51.125 12.057 c-17.003470EA20"/><glyph unicode="&#xE047;" glyph-name="padlock71" horiz-adv-x="512" d="M373.461 246.754h-24.539v50.833c0 36.756 -29.903 66.659 -66.659 66.659h-52.527c-36.756 0 -66.659 -290BE0932AF6"/><glyph unicode="&#xE048;" glyph-name="password19" horiz-adv-x="512" d="M388.691 324.691C366.246 347.138 336.4 359.5 304.655 359.5s-61.591 -12.362 -84.038 -34.809 c-15.987 0D61E9CA9B"/><glyph unicode="&#xE049;" glyph-name="pencil124" horiz-adv-x="512" d="M424.839 273.89l-43.452 43.453c-0.008 0.007 -0.014 0.016 -0.02 0.023c-0.008 0.007 -0.018 0.014 -0.020281D42ABD"/><glyph unicode="&#xE04A;" glyph-name="pin60" horiz-adv-x="512" d="M256 368.259c-76.645 0 -139 -62.355 -139 -139c0 -28.248 8.428 -55.441 24.374 -78.639c14.717 -21.411 043C215AE1"/><glyph unicode="&#xE04B;" glyph-name="pin61" horiz-adv-x="512" d="M439.839 240.784L304.782 375.84c-4.882 4.881 -12.796 4.881 -17.678 0c-10.44 -10.439 -19.515 -44.235 0CA2C25ADB"/><glyph unicode="&#xE04C;" glyph-name="play120" horiz-adv-x="512" d="M381.351 389.5H130.649c-39.784 0 -72.15 -32.367 -72.15 -72.151v-250.698c0 -39.784 32.366 -72.151 72.06FEEDBA92"/><glyph unicode="&#xE04D;" glyph-name="power" horiz-adv-x="512" d="M256 193.117c-6.903 0 -12.5 5.597 -12.5 12.5V356.982c0 6.903 5.597 12.5 12.5 12.5s12.5 -5.597 12.5 -0C8CB5DA30"/><glyph unicode="&#xE04E;" glyph-name="profile29" horiz-adv-x="512" d="M333.357 184.298h-16.123c31.147 20.151 51.804 55.193 51.804 94.971c0 62.33 -50.708 113.038 -113.038 04132C4ACE"/><glyph unicode="&#xE04F;" glyph-name="question57" horiz-adv-x="512" d="M381.351 389.5H130.649c-39.784 0 -72.15 -32.366 -72.15 -72.15V66.65c0 -39.784 32.367 -72.15 72.15 -70B9EA89AF6"/><glyph unicode="&#xE050;" glyph-name="rain2" horiz-adv-x="512" d="M405.385 320.33C365.396 354.869 312.343 373.891 256 373.891S146.604 354.869 106.615 320.33 c-40.512 060D2CEA60"/><glyph unicode="&#xE051;" glyph-name="repair17" horiz-adv-x="512" d="M431.117 290.612c-1.666 3.766 -5.078 6.469 -9.125 7.228c-4.053 0.762 -8.21 -0.523 -11.127 -3.429l-4607C869AAD6"/><glyph unicode="&#xE052;" glyph-name="right11" horiz-adv-x="512" d="M386.755 200.839l-80 80c-4.881 4.881 -12.797 4.881 -17.678 0c-4.882 -4.882 -4.882 -12.796 0 -17.678l0ADCA4BAA6"/><glyph unicode="&#xE053;" glyph-name="sand26" horiz-adv-x="512" d="M299.729 192c48.343 53.181 62.551 158.461 63.166 163.191c0.464 3.566 -0.63 7.16 -3.005 9.862 c-2.372034EB2FA6E"/><glyph unicode="&#xE054;" glyph-name="screwdriver26" horiz-adv-x="512" d="M473.646 286.049c-1.666 3.766 -5.078 6.469 -9.125 7.229c-4.053 0.762 -8.21 -0.523 -11.127 -3.43l-46.041F6EAA27"/><glyph unicode="&#xE055;" glyph-name="setting5" horiz-adv-x="512" d="M408.918 167.664c1.271 8.036 1.913 16.191 1.913 24.336s-0.642 16.301 -1.913 24.337 c7.503 6.647 12.805AD36EABF"/><glyph unicode="&#xE056;" glyph-name="sheet3" horiz-adv-x="512" d="M449.839 260.537l-29.509 29.51c-0.004 0.004 -0.006 0.008 -0.01 0.011s-0.007 0.006 -0.01 0.009L390.8 0A4D8ECAA9"/><glyph unicode="&#xE057;" glyph-name="smartphone42" horiz-adv-x="512" d="M395 381.5H117c-6.903 0 -12.5 -5.597 -12.5 -12.5v-354c0 -6.903 5.597 -12.5 12.5 -12.5h278c6.903 0 120539D89A99"/><glyph unicode="&#xE058;" glyph-name="soft4" horiz-adv-x="512" d="M351 274.071h-15.69c-0.112 6.806 -5.656 12.292 -12.489 12.292h-48.52l-18.482 57.291c-0.767 2.375 -2.03718CDAA4"/><glyph unicode="&#xE059;" glyph-name="sound40" horiz-adv-x="512" d="M404.486 161.322c-0.281 47.624 -12.478 88.82 -35.331 119.218c-26.279 34.956 -65.408 53.432 -113.155 0B7E59FAC3"/><glyph unicode="&#xE05A;" glyph-name="speaker121" horiz-adv-x="512" d="M308.893 360.121c-4.203 2.128 -9.244 1.715 -13.043 -1.072L159.484 259.008c-2.184 1.862 -5.01 2.992 -0E51A95A98"/><glyph unicode="&#xE05B;" glyph-name="thermometer61" horiz-adv-x="512" d="M307.352 152.766v185.48c0 28.315 -23.036 51.352 -51.352 51.352s-51.352 -23.036 -51.352 -51.352v-185.0113982ACF"/><glyph unicode="&#xE05C;" glyph-name="tv30" horiz-adv-x="512" d="M412.38 273.482h-132.74l62.796 62.797c4.881 4.882 4.881 12.796 0 17.678c-4.882 4.881 -12.796 4.881 -0FB1A3BA5F"/><glyph unicode="&#xE05D;" glyph-name="up7" horiz-adv-x="512" d="M344.839 242.757l-80 79.998c-4.881 4.881 -12.797 4.881 -17.678 0l-80 -80c-4.882 -4.882 -4.882 -12.790C2B6B0AEE"/><glyph unicode="&#xE05E;" glyph-name="update22" horiz-adv-x="512" d="M416.61 122.896c-2.132 6.566 -9.183 10.155 -15.75 8.026l-16.254 -5.281c9.958 20.592 15.173 43.236 15020EFACAED"/><glyph unicode="&#xE05F;" glyph-name="update23" horiz-adv-x="512" d="M418.301 326.722c-6.753 1.449 -13.396 -2.853 -14.842 -9.603l-9.084 -42.391c-28.923 49.341 -82.009 8003BB1D6AD6"/><glyph unicode="&#xE060;" glyph-name="view28" horiz-adv-x="512" d="M256 71.717c-49.708 0 -103.206 19.44 -154.71 56.219c-38.502 27.494 -62.266 54.734 -63.259 55.881 c-4.068 4.697 -4.068 11.67 0 16.367c0.993 1.146 24.756 28.387 63.259 55.881c51.505 36.777 105.003 56.219 154.71 56.219 s103.206 -19.441 154.71 -56.219c38.502 -27.494 62.266 -54.734 63.259 -55.881c4.068 -4.697 4.068 -11.67 0 -16.367 c-0.993 -1.146 -24.756 -28.387 -63.259 -55.881C359.206 91.157 305.708 71.717 256 71.717zM64.618 192 c9.61 -9.799 27.747 -27.03 51.694 -44.071c32.83 -23.362 83.714 -51.212 139.688 -51.212s106.858 27.85 139.688 51.212 c23.944 17.038 42.082 34.27 51.694 44.071c-9.61 9.799 -27.747 27.03 -51.694 44.071c-32.83 23.362 -83.714 51.212 -139.688 51.212 s-106.858 -27.85 -139.688 -51.212C92.368 219.032 74.23 201.802 64.618 192zM256 114.5c-42.734 0 -77.5 34.767 -77.5 77.5s34.766 77.5 77.5 77.5c18.794 0 36.924 -6.814 51.048 -19.188 c5.193 -4.549 5.715 -12.446 1.166 -17.639c-4.549 -5.193 -12.447 -5.714 -17.639 -1.166C281.011 239.886 268.732 244.5 256 244.5 c-28.949 0 -52.5 -23.552 -52.5 -52.5s23.551 -52.5 52.5 -52.5s52.5 23.552 52.5 52.5c0 6.903 5.597 12.5 12.5 12.5s12.5 -5.597 12.5 -12.5 C333.5 149.267 298.734 114.5 256 114.5zM256 167c-13.785 0 -25 11.215 -25 25s11.215 25 25 25s25 -11.215 25 -25S269.785 167 256 167z"/><glyph unicode="&#xE061;" glyph-name="wallet35" horiz-adv-x="512" d="M442.498 243.966c0 0 1.371 66.827 -34.954 104.305c-17.161 17.706 -39.612 26.684 -66.729 26.684H116.90569C84AC2"/><glyph unicode="&#xE062;" glyph-name="wand2" horiz-adv-x="512" d="M416.194 262.038l-26.264 7.037c-6.668 1.785 -13.522 -2.171 -15.31 -8.839c-1.786 -6.669 2.171 -13.5220A77225ADE"/><glyph unicode="&#xE063;" glyph-name="wealth" horiz-adv-x="512" d="M423.629 245.389l-55 97.495c-2.216 3.929 -6.377 6.358 -10.887 6.358H154.258c-4.51 0 -8.671 -2.43 -10008D81EA35"/></font>
</defs>
</svg>
